Universal Access To All Knowledge
Home Donate | Store | Blog | FAQ | Jobs | Volunteer Positions | Contact | Bios | Forums | Projects | Terms, Privacy, & Copyright
Search: Advanced Search
Anonymous User (login or join us)
Upload

Reply to this post | Go Back
View Post [edit]

Poster: Jim F Date: Nov 16, 2010 4:02am
Forum: GratefulDead Subject: My Ass Hurts

Does anybody know where the song titles came from on this one? It's one of the rarest and most bizarre recordings I've heard in a long while, sortof like the Mickey and the Hartbeats version of Seastones. I just can't imagine that these are any sort of official titles, my guess is someone just came up with them at places where the jams shift. What do you think (or know)?

My favorite is "My Ass Hurts." I'm guessing that one maybe got named during the transfer. It's the final track, maybe by then whoever transferred it had a bad case of computer-chair-ass.

Reply to this post
Reply [edit]

Poster: jglynn1.2 Date: Nov 17, 2010 7:22am
Forum: GratefulDead Subject: Re: My Ass Hurts

http://www.southparkstudios.com/clips/359476/fart-jokes-to-save-the-world

http://www.southparkstudios.com/clips/103409/80-foot-satellite



This post was modified by jglynn1.2 on 2010-11-17 15:22:07

Reply to this post
Reply [edit]

Poster: Hal R Date: Nov 16, 2010 8:34pm
Forum: GratefulDead Subject: Re: My Ass Hurts

thanks for posting this one, it's nice to see little gems pop up after you think you have explored the mine in detail

Reply to this post
Reply [edit]

Poster: Jim F Date: Nov 16, 2010 4:10am
Forum: GratefulDead Subject: Re: My Ass Hurts

Duh, I forgot to post the show info...


MOTB Release: 0153 16/44.1
Release Date: 2010-08-03
Band: Jerry Garcia & Mickey Hart
Date: 1973-11-28 (Wednesday)
Venue: Palace of Fine Arts Theatre
Location: San Francisco, CA
Analog Audience Source: FOB Master Cassettes (MAC)
Medium Stock Brands: MAC = 2 x TDK SD c90
Analog Lineage: Sony ecm 270 >> Sony TC-110(mono)  >> MAC
Analog Sound Preservation: MAC >> Nakamichi CR7a => Korg MR-1000 >> DSF [1-bit 5.6448 MHz Stereo] >> Korg MR-1000 => Korg AudioGate >> WAV [24/96]
Taped By: Robert Castelli
Transfer By: Bob Menke
Mastering By: David Minches


Benefit experiment in quadraphonic sound


Disc One
Set 1:
d1t01: Adventures In The Deep Noodle >
d1t02: Orgasmic Plasma Shift >
d1t03: The Spaghedeity's Revenge >
d1t04: Why Thank You, Yes, I Think I Will >

Disc Two
d2t01: Calabi-Yau Space >
d2t02: White Hole >
d2t03: Aggressive Precdicate Pushdown >
d2t04: Mama Cried >
d2t05: Franks 'n Beans >

Disc Three
d3t01: Wingteam Central >
d3t02: Dark Glass Broken >
d3t03: My Ass Hurts



SHN TOOL:

length expanded size cdr WAVE problems fmt ratio filename
11:19.31 119848556 B --- -- ---xx flac 0.4979 gh1973-11-28d1t01.flac
17:48.00 188395244 B --- -- ---xx flac 0.5211 gh1973-11-28d1t02.flac
13:48.38 146148620 B --- -- ---xx flac 0.5274 gh1973-11-28d1t03.flac
17:24.04 184171052 B --- -- ---xx flac 0.5522 gh1973-11-28d1t04.flac
19:49.32 209814908 B --- -- ---xx flac 0.5317 gh1973-11-28d2t01.flac
17:33.64 185899772 B --- -- ---xx flac 0.5537 gh1973-11-28d2t02.flac
7:46.19 82247132 B --- -- ---xx flac 0.5271 gh1973-11-28d2t03.flac
7:41.25 81379244 B --- -- ---xx flac 0.5533 gh1973-11-28d2t04.flac
12:46.74 135296492 B --- -- ---xx flac 0.5061 gh1973-11-28d2t05.flac
11:54.26 126010796 B --- -- ---xx flac 0.5432 gh1973-11-28d3t01.flac
7:22.28 78034700 B --- -- ---xx flac 0.5692 gh1973-11-28d3t02.flac
6:08.11 64941116 B --- -- ---xx flac 0.5454 gh1973-11-28d3t03.flac
151:22.52 1602187632 B 0.5344 (12 files)

Reply to this post
Reply [edit]

Poster: robthewordsmith Date: Nov 16, 2010 6:22am
Forum: GratefulDead Subject: Re: My Ass Hurts

Sorry I can't answer your questions, Jim, but for the benefit of those who might want to take a listen here's the link to the show on the Archive.

http://www.archive.org/details/gd73-11-28.sbd-seastones.finney.968.sbefail.shnf


There's some further information to be gleaned from the reviews.

Reply to this post
Reply [edit]

Poster: zeroenvy Date: Nov 16, 2010 7:01am
Forum: GratefulDead Subject: Re: My Ass Hurts

thankyou for the link.

Reply to this post
Reply [edit]

Poster: turnphilup Date: Nov 16, 2010 7:46am
Forum: GratefulDead Subject: Re: My Ass Hurts

Cue up Seastones tracks with this link.
http://multimedia.mcb.harvard.edu/

Reply to this post
Reply [edit]

Poster: ringolevio Date: Nov 16, 2010 1:13pm
Forum: GratefulDead Subject: Re: My Ass Hurts

That was cool, thanks.

Reply to this post
Reply [edit]

Poster: Jim F Date: Nov 18, 2010 1:37am
Forum: GratefulDead Subject: Re: My Ass Hurts

Some of the MOTB source is on Finny shinid 968 source, which has it's own unique things, but too bad it can't include more...It's a shame that the MOTB source had to be listed as Garcia/Hart and is not on the Archive...:-(